DMCA
최근 인기 자료

[한글] [4K] 킹 아서: 제왕의 검 King Arthur: Legend of the Sword (2017) (2160p B…

익명 0
35,445 01.07

첨부파일

  • King Arthur Legend of the Sword 2017 (2160p x265 10bit S90 Joy)
    용량 6.29G (13개 파일)
    파일
    • Encoded by JoyBell (UTR).txt(2.57K)
    • Extras/Arthur with Swagger.mkv(50.17M)
    • Extras/Camelot in 93 Days.mkv(54.2M)
    • Extras/Fight Choreography.mkv(29.31M)
    • Extras/Inside the Cut - The Action of King Arthur.mkv(31.48M)
    • Extras/Scenic Scottland.mkv(28.19M)
    • Extras/Setting Ip Arthur.mkv(73.16M)
    • Extras/The Ledgend.mkv(97.84M)
    • Extras/The Legend of Excalibur.mkv(31.2M)
    • How to play HEVC (THIS FILE).txt(3.01K)
  • 1970 2018-01-07 15:50:20
  • 로봇방지를 위해 다운로드 5회(회원은 20회)에 1번의 체크를 하고있습니다.
    다운로드를 하시려면 `로봇이 아닙니다.`를 체크해주세요.

본문

6492b5fbb6049b87575a6c99184a16cb.jpg
e40a65522e336185f785c15b05cce900.jpg
775c1d7a4f90e1e2ed8023384945ce78.jpg
746ec467b0fffe69b0726e9be7f8a6a1.jpg
bfb55ab466a0f04e409fb2129e53fa25.jpg
 

Media Information

Code:

General 
Format : Matroska 
Format version : Version 4 / Version 2 
File size : 5.91 GiB 
Duration : 2 h 6 min 
Overall bit rate : 6 699 kb/s 
Movie name : King Arthur Legend of the Sword 2017 (2160p x265 10bit Joy)[UTR] 
Encoded date : UTC 2017-12-12 00:17:18 
Writing application : mkvmerge v17.0.0 (Be Ur Friend) 64-bit 
Writing library : libebml v1.3.5 + libmatroska v1.4.8 
Cover : Yes 
Attachments : cover.jpg 
Writing frontend : StaxRip v1.6.0.1 

Video 
ID : 1 
Format : HEVC 
Format/Info : High Efficiency Video Coding 
Format profile : [email protected] 
Codec ID : V_MPEGH/ISO/HEVC 
Duration : 2 h 6 min 
Bit rate : 5 999 kb/s 
Width : 3 840 pixels 
Height : 1 600 pixels 
Display aspect ratio : 2.40:1 
Frame rate mode : Constant 
Frame rate : 23.976 (24000/1001) FPS 
Color space : YUV 
Chroma subsampling : 4:2:0 
Bit depth : 10 bits 
Bits/(Pixel*Frame) : 0.041 
Stream size : 5.29 GiB (90%) 
Writing library : x265 2.5+27-0e168bdeb48b:[Windows][MSVC 1911][64 bit] 10bit 

Audio #1 
ID : 2 
Format : AAC 
Format/Info : Advanced Audio Codec 
Format profile : LC 
Codec ID : A_AAC 
Duration : 2 h 6 min 
Bit rate : 419 kb/s 
Channel(s) : 8 channels 
Channel positions : Front: L C R, Side: 4, LFE 
Sampling rate : 48.0 kHz 
Frame rate : 46.875 FPS (1024 spf) 
Compression mode : Lossy 
Delay relative to video : 20 ms 
Stream size : 378 MiB (6%) 
Language : English 
Default : No 
Forced : No 

마법과 인간이 공존하는 세상, 권력에 눈이 먼 보티건(주드 로)은 어둠의 마법사와 결탁해 형을 죽이고 왕위를 차지한다. 아버지의 처참한 희생으로 목숨을 구한 아서(찰리 헌냄)는 자신의 출신을 모른 채 거리의 아들이 되어 성장한다. 한편 보티건의 강압적인 정치로 인해 핍박 받는 백성들 사이에서는 바위에 꽂혀 있는 엑스칼리버를 뽑는 자가 진짜 왕이라는 소문이 파다하게 퍼진다. 아서는 어떤 힘에 이끌려 검을 뽑게 되고, 이 때부터 아서를 제거하려는 보티건의 무리들과 예언자 멀린의 제자 마법사를 비롯해 아서를 왕으로 추앙하려는 원정대들이 맞서면서 아서의 삶은 완전히 바뀐다. 이제 아서는 본인이 원하든 원하지 않든, 진짜 운명을 받아들일 수 밖에 없게 되는데….
0
좋아요!
댓글목록

등록된 댓글이 없습니다.

사이드 메뉴