DMCA
최근 인기 자료

[한글] 컨택트 Arrival (2016) 1080p Bluray BDrip x265 HEVC DTS-MA 7.1 D0ct0r…

익명 0
18,559 01.10

첨부파일

  • Arrival 2016 1080p Bluray BDrip x265 HEVC DTS-MA 7.1 D0ct0rLew[UTR-HD].mkv
    용량 6.75G (1개 파일)
    파일
    • Arrival 2016 1080p Bluray BDrip x265 HEVC DTS-MA 7.1 D0ct0rLew[UTR-HD].mkv(6.75G)
  • 1075 2018-01-10 02:00:14
  • 로봇방지를 위해 다운로드 5회(회원은 20회)에 1번의 체크를 하고있습니다.
    다운로드를 하시려면 `로봇이 아닙니다.`를 체크해주세요.

본문

d05b27085f06351552c6ef0cf6d6b13e.gif
 

d043824c4262fd97e35f18d077870cf3.png



Screenshots

 

Code:

Source 
7ec98e80d031bbd02bd2030395ae1bad.pngc419874fba99e8b4589e6fa910660c0f.png329f8dd787035021e1ddbfb5a37d8fc5.png 
Encode 
3e96f68b7e7b7ed697536651277319a4.pngb7db2fc254ad43c301c50d47caf1a649.pngb77aa7faa6648ae37645c23514cb4646.png 


Media Information


General 
Complete name : Arrival 2016 1080p Bluray BDrip x265 HEVC DTS-MA 7.1 D0ct0rLew[UTR-HD].mkv 
Format : Matroska 
Format version : Version 4 / Version 2 
File size : 6.75 GiB 
Duration : 1 h 56 min 
Overall bit rate : 8 306 kb/s 
Movie name : Arrival.2016.1080p.BluRay.REMUX.AVC.DTS-HD.MA.7.1-FGT 
Encoded date : UTC 2018-01-06 05:39:44 
Writing application : mkvmerge v12.0.0 (Trust / Lust) 64bit 
Writing library : libebml v1.3.4 + libmatroska v1.4.5 

Video 
ID : 2 
Format : HEVC 
Format/Info : High Efficiency Video Coding 
Format profile : [email protected] 
Codec ID : V_MPEGH/ISO/HEVC 
Duration : 1 h 56 min 
Bit rate : 2 745 kb/s 
Width : 1 920 pixels 
Height : 1 080 pixels 
Display aspect ratio : 16:9 
Frame rate mode : Constant 
Frame rate : 23.976 (24000/1001) FPS 
Color space : YUV 
Chroma subsampling : 4:2:0 
Bit depth : 10 bits 
Bits/(Pixel*Frame) : 0.055 
Stream size : 2.23 GiB (33%) 
Writing library : x265 2.6+15-57eaef9abfd8:[Windows][MSVC 1912][64 bit] 10bit 

Audio #1 
ID : 1 
Format : AAC 
Format/Info : Advanced Audio Codec 
Format profile : LC 
Codec ID : A_AAC-2 
Duration : 1 h 56 min 
Bit rate : 576 kb/s 
Channel(s) : 7 channels 
Channel(s)_Original : 8 channels 
Channel positions : Front: L C R, Side: L R, Back: L R, LFE 
Sampling rate : 48.0 kHz 
Frame rate : 46.875 FPS (1024 SPF) 
Compression mode : Lossy 
Delay relative to video : 9 ms 
Stream size : 479 MiB (7%) 
Default : Yes 
Forced : No 

Audio #2 
ID : 3 
Format : DTS 
Format/Info : Digital Theater Systems 
Format profile : MA / Core 
Codec ID : A_DTS 
Duration : 1 h 56 min 
Bit rate mode : Variable / Constant 
Bit rate : 4 207 kb/s / 1 509 kb/s 
Channel(s) : 8 channels / 6 channels 
Channel positions : Front: L C R, Side: L R, Back: L R, LFE / Front: L C R, Side: L R, LFE 
Sampling rate : 48.0 kHz 
Frame rate : 93.750 FPS (512 SPF) 
Bit depth : 24 bits 
Compression mode : Lossless / Lossy 
Stream size : 3.42 GiB (51%) 
Title : Arrival.2016.1080p.BluRay.REMUX.AVC.DTS-HD.MA.7.1-FGT 
Language : English 
Default : No 
Forced : No 

Audio #3 
ID : 4 
Format : AAC 
Format/Info : Advanced Audio Codec 
Format profile : LC 
Codec ID : A_AAC-2 
Duration : 1 h 56 min 
Bit rate : 384 kb/s 
Channel(s) : 6 channels 
Channel positions : Front: L C R, Side: L R, LFE 
Sampling rate : 48.0 kHz 
Frame rate : 46.875 FPS (1024 SPF) 
Compression mode : Lossy 
Delay relative to video : 9 ms 
Stream size : 320 MiB (5%) 
Language : Spanish 
Default : No 
Forced : No 

Audio #4 
ID : 5 
Format : AAC 
Format/Info : Advanced Audio Codec 
Format profile : LC 
Codec ID : A_AAC-2 
Duration : 1 h 56 min 
Bit rate : 384 kb/s 
Channel(s) : 6 channels 
Channel positions : Front: L C R, Side: L R, LFE 
Sampling rate : 48.0 kHz 
Frame rate : 46.875 FPS (1024 SPF) 
Compression mode : Lossy 
Delay relative to video : 9 ms 
Stream size : 320 MiB (5%) 
Title : for visually impaired 
Language : English 
Default : No 
Forced : No 

Text #1 
ID : 6 
Format : UTF-8 
Codec ID : S_TEXT/UTF8 
Codec ID/Info : UTF-8 Plain Text 
Duration : 1 h 49 min 
Bit rate : 56 b/s 
Count of elements : 1441 
Stream size : 45.5 KiB (0%) 
Language : English 
Default : Yes 
Forced : No 

12개의 외계 비행 물체(쉘)가 미국, 중국, 러시아를 비롯한 세계 각지 상공에 등장했다. 

웨버 대령(포레스트 휘태커)은 언어학 전문가 루이스 뱅크스 박사(에이미 아담스)와 과학자 이안 도넬리(제레미 레너)를 통해 외계 비행 물체(쉘) 접촉하기 시작한다. 

두 사람은 18시간마다 아래쪽에서 문이 열리는 외계 비행 물체(쉘) 내부로 진입해 정체 모를 생명체와 마주하게 되고, 이들은 15시간 내 그들이 지구에 온 이유를 밝혀내야 하는데...

0
좋아요!
댓글목록

등록된 댓글이 없습니다.

사이드 메뉴