DMCA
최근 인기 자료

[한글] 디 아이 The Eye 2008 (1080p Bluray x265 HEVC 10bit AAC 5.1 Tigole) […

익명 0
13,595 10.17

본문

 

The Eye 2008 in 1080p, encoded with x265 in HEVC and AAC 5.1 English, with English and German subtitles! 
Encoded using the time consuming 2 pass, 10 bit color at 2500 kbps, from a Blu-ray source, for the highest quality possible. 



Media Information

Code:

General 
Format : Matroska 
Format version : Version 4 / Version 2 
File size : 1.91 GiB 
Duration : 1h 36mn 
Overall bit rate : 2 826 Kbps 
Movie name : The Eye 
Encoded date : UTC 2016-10-31 02:51:09 

Video 
ID : 1 
Format : HEVC 
Format/Info : High Efficiency Video Coding 
Format profile : Main [email protected]@Main 
Codec ID : V_MPEGH/ISO/HEVC 
Duration : 1h 36mn 
Bit rate : 2 482 Kbps 
Width : 1 920 pixels 
Height : 816 pixels 
Display aspect ratio : 2.35:1 
Frame rate mode : Constant 
Frame rate : 23.976 (24000/1001) fps 
Color space : YUV 
Chroma subsampling : 4:2:0 
Bit depth : 10 bits 
Bits/(Pixel*Frame) : 0.066 
Stream size : 1.67 GiB (88%) 

Audio 
ID : 2 
Format : AAC 
Format/Info : Advanced Audio Codec 
Format profile : LC 
Codec ID : A_AAC 
Duration : 1h 36mn 
Bit rate : 338 Kbps 
Channel(s) : 6 channels 
Channel positions : Front: L C R, Side: L R, LFE 
Sampling rate : 48.0 KHz 
Frame rate : 46.875 fps (1024 spf) 
Compression mode : Lossy 
Delay relative to video : 20ms 
Stream size : 234 MiB (12%) 
Language : English 
Default : Yes 
Forced : No 

Text #1 
ID : 3 
Format : UTF-8 
Codec ID : S_TEXT/UTF8 
Codec ID/Info : UTF-8 Plain Text 
Duration : 1h 27mn 
Bit rate : 34 bps 
Count of elements : 766 
Stream size : 22.3 KiB (0%) 
Language : English 
Default : No 
Forced : No 

“이 사진 속의 여자는 누구죠?”
“…… 너잖아”

적출 [각막을 끄집어내는 일]
어린 시절 불의의 사고로 시력을 잃은 바이올리니스트 시드니 웰스(제시카 알바). 아픈 상처 속에서도 씩씩하게 살아가던 그녀는 드디어 각막 이식 수술을 받고 힘겨운 적응 기간을 이겨내며 서서히 일상적인 삶으로 돌아온다.

이식 [각막이 혼탁 되어 있을 때 다른 신선한 각막을 이식하는 일]
하지만 행복한 시간도 잠시, 시력을 점차 회복해 가면서 다른 사람에게는 보이지 않는 기이한 것들이 보이기 시작하고, 악몽인지 현실인지 분간할 수 없는 공포에 시달리게 된다. 

봉합 [수술한 자리나 외상으로 갈라진 자리를 꿰매어 붙임]
눈을 뜨면 보이는 죽은 자들의 영혼들. 시드니는 이식 수술 후 기증자의 성격과 습성까지 전이되는 ‘셀룰러 메모리’라는 이상반응 현상을 의심하고 주위의 만류에도 불구하고 직접 기증자를 찾아 나선다. 
그리고 감당할 수 없는 커다란 비밀과 공포 앞에 다시 한번 주저앉게 되는데…

0
좋아요!
댓글목록

등록된 댓글이 없습니다.